q3r3
一代宗师

[2021] [欧美] [悬疑] [纯净版] [BT下载][电锯惊魂9:漩涡][BD-MKV/10.19GB][双语字幕][4K-2160P][HDR版本][电锯惊魂,惊悚,血腥,恐怖,美国,犯罪]

-->



◎译  名 电锯惊魂9:漩涡 / 死亡漩涡:夺魂锯新游戏(台) / 漩涡:恐惧斗室新游戏(港) / 电锯惊魂9 / 新电锯惊魂 / 《电锯惊魂》重启版 / 电锯惊魂9:螺旋 / Spiral / SAW: The Organ Donor / The Organ Donor
◎片  名 Spiral: From the Book of Saw
◎年  代 2021
◎产  地 美国 / 加拿大
◎类  别 悬疑 / 惊悚 / 恐怖
◎语  言 英语
◎上映日期 2021-05-14(美国)
◎IMDb链接 https://www.imdb.com/title/tt10342730/
◎豆瓣评分 5.2/10 (19411人评价)
◎豆瓣链接 https://movie.douban.com/subject/33450426/
◎片  长 93分钟
◎导  演 达伦·林恩·鲍斯曼 Darren Lynn Bousman (id:1014131)
◎编  剧 乔什·斯托博格 Josh Stolberg (id:1032733)
      皮特·古德芬格 Pete Goldfinger (id:1369128)
◎演  员 克里斯·洛克 Chris Rock (id:1004578)
      塞缪尔·杰克逊 Samuel L. Jackson (id:1054408)
      麦克思·明格拉 Max Minghella (id:1049577)
      马利索·妮可 Marisol Nichols (id:1040540)
      摩根·大卫·琼斯 Morgan David Jones (id:1236848)
      阿莉·约翰逊 Ali Johnson (id:1452519)
      弗兰克·利卡里 Frank Licari (id:1456897)
      约翰·托卡特利迪斯 John Tokatlidis (id:1456895)
      佐伊·帕尔默 Zoie Palmer (id:1275589)
      丹·皮特隆杰维奇 Dan Petronijevic (id:1000564)
      理查德·泽皮里 Richard Zeppieri (id:1456893)
      伊迪·英克斯特 Edie Inksetter (id:1456894)
      莱拉·丽 Leila Leigh (id:1172516)
      克里斯托弗·泰 Christopher Tai (id:1223543)
      盖内尔·威廉姆斯 Genelle Williams (id:1208623)
      莱昂尼达斯·卡斯特罗尼斯 Leonidas Castrounis (id:1456896)
      克里斯·柯林斯 K.C. Collins (id:1338050)
      纳齐恩·康特拉科特 Nazneen Contractor (id:1318273)
      卢克·加洛 Luke Gallo (id:1268702)
      乔什·斯托博格 Josh Stolberg (id:1032733)
      温子仁 James Wan (id:1032122)
      克里斯·洛克 Chris Rock (id:1004578)
      凯文·格劳特 Kevin Greutert (id:1000481)
      奥伦·科尔斯 Oren Koules (id:1005478)
      雷·沃纳尔 Leigh Whannell (id:1014029)
      查理·克劳泽 Charlie Clouser (id:1009948)
      乔丹·奥拉姆 Jordan Oram (id:1442923)
      德夫·辛格 Dev Singh (id:1457300)
      安东尼·考利 Anthony Cowley (id:1281408)
      格雷格·乔恩 Greg Chown (id:1280727)

◎标  签 电锯惊魂 / 惊悚 / 血腥 / 恐怖 / 美国 / 犯罪 / 悬疑 / 2021

◎简  介
  老鸟警探(塞缪尔·杰克逊 Samuel L. Jackson 饰)带领警探(克里斯·洛克 Chris Rock 饰)调查惨绝人寰的连环杀警案,“拼图杀人魔”重出江湖的传言,再度勾起所有人心中的恐惧。这次新的游戏规则,似乎直冲警察而来。每个命案现场留下的“死亡漩涡”,将把他们卷进难以抽身的血腥深渊之中……
《电锯惊魂》第九部由第8部的两位编剧皮特·古德芬格和乔什·斯托伯格撰写剧本。执导了《电锯惊魂234》的达伦·林恩·鲍斯曼此番回归执导。

General
Unique ID : 75067490211742128233885052950896220650 (0x387979047F6743462276FE0B419899EA)
Complete name : Spi[email protected]BBQDDQ.COM.mkv
Format : Matroska
Format version : Version 4
File size : 10.2 GiB
Duration : 1 h 33 min
Overall bit rate mode : Variable
Overall bit rate : 15.7 Mb/s
Movie name : Spiral 2021 2160p HDR UHD BluRay TrueHD 7.1 Atmos [email protected]
Encoded date : UTC 2021-07-17 00:26:14
Writing application : mkvmerge v38.0.0 ('The Silent Type') 64-bit
Writing library : libebml v1.3.9 + libmatroska v1.5.2

Video
ID : 1
Format : HEVC
Format/Info : High Efficiency Video Coding
Format profile : Main [email protected]@High
HDR format : SMPTE ST 2086, HDR10 compatible
Codec ID : V_MPEGH/ISO/HEVC
Duration : 1 h 33 min
Bit rate : 11.2 Mb/s
Width : 3 840 pixels
Height : 1 604 pixels
Display aspect ratio : 2.40:1
Frame rate mode : Constant
Frame rate : 23.976 (24000/1001) FPS
Color space : YUV
Chroma subsampling : 4:2:0
Bit depth : 10 bits
Bits/(Pixel*Frame) : 0.076
Stream size : 7.30 GiB (72%)
Title : @HDSky
Writing library : x265 - H.265/HEVC codec
Default : Yes
Forced : No
Color range : Limited
Color primaries : BT.2020
Transfer characteristics : PQ
Matrix coefficients : BT.2020 non-constant
Mastering display color primaries : Display P3
Mastering display luminance : min: 0.0020 cd/m2, max: 1000 cd/m2
Maximum Content Light Level : 739 cd/m2
Maximum Frame-Average Light Level : 331 cd/m2

Audio
ID : 2
Format : MLP FBA 16-ch
Format/Info : Meridian Lossless Packing FBA with 16-channel presentation
Commercial name : Dolby TrueHD with Dolby Atmos
Codec ID : A_TRUEHD
Duration : 1 h 33 min
Bit rate mode : Variable
Bit rate : 4 299 kb/s
Maximum bit rate : 9 057 kb/s
Channel(s) : 8 channels
Channel layout : L R C LFE Ls Rs Lb Rb
Sampling rate : 48.0 kHz
Frame rate : 1 200.000 FPS (40 SPF)
Compression mode : Lossless
Stream size : 2.80 GiB (27%)
Title : English
Language : English
Default : Yes
Forced : No
Number of dynamic objects : 11
Bed channel count : 1 channel
Bed channel configuration : LFE

Text #1
ID : 3
Format : PGS
Muxing mode : zlib
Codec ID : S_HDMV/PGS
Codec ID/Info : Picture based subtitle format used on BDs/HD-DVDs
Duration : 1 h 25 min
Bit rate : 37.0 kb/s
Count of elements : 2304
Stream size : 22.7 MiB (0%)
Title : ENG
Language : English
Default : Yes
Forced : No

Text #2
ID : 4
Format : PGS
Muxing mode : zlib
Codec ID : S_HDMV/PGS
Codec ID/Info : Picture based subtitle format used on BDs/HD-DVDs
Duration : 1 h 25 min
Bit rate : 26.1 kb/s
Count of elements : 1648
Stream size : 16.0 MiB (0%)
Title : CHS
Language : Chinese
Default : No
Forced : No

Text #3
ID : 5
Format : PGS
Muxing mode : zlib
Codec ID : S_HDMV/PGS
Codec ID/Info : Picture based subtitle format used on BDs/HD-DVDs
Duration : 1 h 25 min
Bit rate : 26.8 kb/s
Count of elements : 1648
Stream size : 16.4 MiB (0%)
Title : CHT
Language : Chinese
Default : No
Forced : No

Text #4
ID : 6
Format : PGS
Muxing mode : zlib
Codec ID : S_HDMV/PGS
Codec ID/Info : Picture based subtitle format used on BDs/HD-DVDs
Duration : 1 h 25 min
Bit rate : 46.1 kb/s
Count of elements : 1648
Stream size : 28.2 MiB (0%)
Title : CHS&ENG
Language : Chinese
Default : No
Forced : No

Text #5
ID : 7
Format : PGS
Muxing mode : zlib
Codec ID : S_HDMV/PGS
Codec ID/Info : Picture based subtitle format used on BDs/HD-DVDs
Duration : 1 h 25 min
Bit rate : 46.8 kb/s
Count of elements : 1648
Stream size : 28.6 MiB (0%)
Title : CHT&ENG
Language : Chinese
Default : No
Forced : No

Menu
00:00:00.000 : en:Chapter 01
00:05:45.428 : en:Chapter 02
00:11:25.476 : en:Chapter 03
00:16:56.599 : en:Chapter 04
00:23:20.190 : en:Chapter 05
00:27:47.416 : en:Chapter 06
00:34:08.213 : en:Chapter 07
00:38:44.656 : en:Chapter 08
00:45:15.171 : en:Chapter 09
00:49:44.315 : en:Chapter 10
00:55:25.489 : en:Chapter 11
00:59:14.217 : en:Chapter 12
01:06:47.295 : en:Chapter 13
01:09:19.072 : en:Chapter 14
01:15:18.723 : en:Chapter 15
01:20:22.818 : en:Chapter 16




1 个附件 售价 大小 下载 时间

电锯惊魂9:漩涡[双语字幕].Spi[email protected]BBQDDQ.COM 10.19GB.torrent 0 金币 30.22K 4820 次 2月前

#1楼
发帖时间:2021-07-17 19:42:23   |   回复数:4
ALLEN820213
隐世仙人♂
感谢楼主分享 !!!
2月前 #2楼
ak147
超凡入圣№
感谢大大分享
2月前 #3楼
ken.sting
一派掌门
感谢楼主分享精彩资源!
2月前 #4楼
spk17
一派掌门
最近怎么都流行不发截图了啊。。
2月前 #5楼
游客组