q3r3
一代宗师

[2021] [大陆] [悬疑] [纯净版] [BT下载][大汉张骞][WEB-MP4/1.48GB][1080P][大陆,历史,古装,中国,中国电影]

-->



◎译  名 大汉张骞
◎年  代 2021
◎产  地 中国大陆
◎类  别 悬疑 / 历史 / 武侠
◎语  言 汉语普通话
◎上映日期 2021-07-13(中国大陆)
◎IMDb链接 https://www.imdb.com/title//
◎豆瓣链接 https://movie.douban.com/subject/34966844/
◎演  员 张宁江 Ningjiang Zhang (id:1321998)
      石兆琪 Zhaoqi Shi (id:1315058)
      张凯元 Kaiyuan Zhang (id:1443523)

◎标  签 大陆 / 历史 / 2021 / 古装 / 中国 / 中国电影 / 中国大陆 / 2021等评分

◎简  介
  公元前139年,张骞率领百余人组成的使团出使西域,中途遭匈奴截杀,张骞与向导堂邑父沦为阶下囚,被困于匈奴十年之久。这日,张骞与堂邑父正照常奉命测绘地图,却不料偶遇大汉斥候耿乐。两军交战,耿乐被俘,误会张骞已经叛变。张骞与同伴的出逃计划因此被打乱……

General
Complete name : 大汉张骞.Zhang [email protected]
Format : MPEG-4
Format profile : Base Media
Codec ID : isom (isom/iso2/avc1/mp41)
File size : 1.48 GiB
Duration : 1 h 36 min
Overall bit rate : 2 191 kb/s
Writing application : Lavf58.12.100

Video
ID : 1
Format : AVC
Format/Info : Advanced Video Codec
Format profile : [email protected]
Format settings : CABAC / 3 Ref Frames
Format settings, CABAC : Yes
Format settings, Reference frames : 3 frames
Codec ID : avc1
Codec ID/Info : Advanced Video Coding
Duration : 1 h 36 min
Bit rate : 1 994 kb/s
Width : 1 920 pixels
Height : 720 pixels
Display aspect ratio : 2.667
Frame rate mode : Constant
Frame rate : 25.000 FPS
Color space : YUV
Chroma subsampling : 4:2:0
Bit depth : 8 bits
Scan type : Progressive
Bits/(Pixel*Frame) : 0.058
Stream size : 1.35 GiB (91%)
Color range : Limited
Color primaries : BT.709
Transfer characteristics : BT.709
Matrix coefficients : BT.709
Codec configuration box : avcC

Audio
ID : 2
Format : AAC LC
Format/Info : Advanced Audio Codec Low Complexity
Codec ID : mp4a-40-2
Duration : 1 h 36 min
Bit rate mode : Constant
Bit rate : 192 kb/s
Channel(s) : 2 channels
Channel layout : L R
Sampling rate : 44.1 kHz
Frame rate : 43.066 FPS (1024 SPF)
Compression mode : Lossy
Stream size : 131 MiB (9%)
Default : Yes
Alternate group : 1




1 个附件 售价 大小 下载 时间

大汉张骞[email protected] 1.48GB.torrent 0 金币 8.39K 6573 次 2月前

#1楼
发帖时间:2021-07-17 19:42:58   |   回复数:5
ALLEN820213
隐世仙人♂
感谢楼主分享 !!!
2月前 #2楼
nattsumi
武林高手
感谢楼主上传分享
2月前 #3楼
ak147
超凡入圣№
感谢大大分享
2月前 #4楼
ken.sting
一派掌门
感谢楼主分享精彩资源!
2月前 #5楼
chulps
一代宗师
~ 珍惜+支持 ~
2月前 #6楼
游客组