q3r3
一代宗师

[更早] [欧美] [悬疑] [纯净版] [BT下载][四海本色][WEB-MKV/2.62GB][简体字幕][1080P][英国,朱尔斯·达辛,黑色电影,黑色,犯罪]

-->



◎译  名 四海本色 / 黑地狱 / 夜与城市
◎片  名 Night and the City
◎年  代 1950
◎产  地 英国 / 美国
◎类  别 悬疑 / 惊悚 / 犯罪 / 运动 / 黑色电影
◎语  言 英语
◎上映日期 1950-04(英国)
◎IMDb链接 https://www.imdb.com/title/tt0042788/
◎豆瓣评分 8.3/10 (2863人评价)
◎豆瓣链接 https://movie.douban.com/subject/1305032/
◎片  长 101分钟
◎导  演 朱尔斯·达辛 Jules Dassin (id:1036836)
◎编  剧 乔·艾辛格 Jo Eisinger (id:1023799)
      杰拉尔德·克什 Gerald Kersh (id:1051518)
      奥斯汀·登普斯特 Austin Dempster (id:1034532)
◎演  员 理查德·威德马克 Richard Widmark (id:1013946)
      吉恩·蒂尔尼 Gene Tierney (id:1040650)
      乔姬·韦瑟斯 Googie Withers (id:1032561)
      休·马洛威 Hugh Marlowe (id:1007161)
      弗朗西斯·L·沙利文 Francis L. Sullivan (id:1158967)
      赫伯特·罗姆 Herbert Lom (id:1049875)
      斯坦尼斯劳斯·兹比什科 Stanislaus Zbyszko (id:1167560)
      迈克·马祖尔凯 Mike Mazurki (id:1120651)
      查尔斯·法雷尔 Charles Farrell (id:1086906)
      埃达·里夫 Ada Reeve (id:1139289)
      肯·里士满 Ken Richmond (id:1144872)
      阿德莱德·霍尔 Adelaide Hall (id:1094722)
      埃利奥特·梅卡姆 Eliot Makeham (id:1117929)
      贝蒂·马斯登 Betty Marsden (id:1125600)
      德里克·布洛姆菲尔德 Derek Blomfield (id:1062042)
      克利福德·巴克顿 Clifford Buckton (id:1078742)
      欧内斯特·布彻 Ernest Butcher (id:1068428)
      彼得·巴特沃思 Peter Butterworth (id:1071795)
      爱德华 切普曼 Edward Chapman (id:1075230)
      帕特里夏·戴维森 Patricia Davidson (id:1194389)
      莫琳·德莱尼 Maureen Delaney (id:1083197)
      奥布里·德克斯特 Aubrey Dexter (id:1088380)
      斯坦利·埃斯卡内 Stanley Escane (id:1082497)
      詹姆斯·海特 James Hayter (id:1092373)
      凯·肯戴尔 Kay Kendall (id:1018215)
      阿瑟·洛夫格罗夫 Arthur Lovegrove (id:1116517)
      费迪·梅恩 Ferdy Mayne (id:1117002)
      吉布·麦克劳克林 Gibb McLaughlin (id:1119490)
      麦克唐纳·帕克 MacDonald Parke (id:1131489)
      查尔斯·巴顿 Charles Paton (id:1135048)
      菲利普·雷 Philip Ray (id:1144331)
      约翰尼·斯科菲尔德 Johnnie Schofield (id:1147239)
      约翰·夏普 John Sharp (id:1025474)
      阿兰·提尔文 Alan Tilvern (id:1041636)
      C·丹尼尔·沃伦 C. Denier Warren (id:1025811)
      布莱恩·韦斯克 Brian Weske (id:1168514)
      达里尔·F·扎努克 Darryl F. Zanuck (id:1054366)
      萨缪尔·G·恩格尔 Samuel G. Engel (id:1017276)
      Benjamin Frankel Benjamin Frankel (id:1008234)
      弗朗茨·沃克斯曼 Franz Waxman (id:1016824)
      穆茨·格林鲍姆 Mutz Greenbaum (id:1008325)
      Nick DeMaggio Nick DeMaggio (id:1017341)
      小道格拉斯·范朋克 Douglas Fairbanks Jr. (id:1036769)
      Percy Hermes Percy Hermes (id:1096204)
      Douglas Hermes Douglas Hermes (id:1098770)
      John Street John Street (id:1151843)

◎标  签 英国 / 朱尔斯·达辛 / 黑色电影 / 黑色 / 1950 / 犯罪 / 英国电影 / 1950s

◎简  介
  哈瑞(理查德·威德马克 Richard Widmark 饰)是一名卑微的皮条客,然而,他从来都没有满足于现状过,而是不断地想找到能够发家致富的门道。一次偶然中,哈瑞结识了名叫乔治(Stanislaus Zbyszko 饰)的摔跤运动员,两人一拍即合,决定组织一场摔跤比赛以谋取暴利。
哈瑞找来了当红摔跤手史瑞乐(Mike Mazurki 饰)对阵乔治的手下尼古拉斯(Ken Richmond 饰),一时间,这场巅峰对决成为了当地人人乐道的传奇。哈瑞的高调惹恼了垄断当地摔跤比赛收益的黑帮,除此之外,乔治的儿子也对哈瑞表示了强烈的不满,与此同时,酒吧老板菲力(Francis L. Sullivan 饰)亦想借此机会除掉这个和自己老婆海伦(乔姬·韦瑟斯 Googie Withers 饰)有一腿的无赖。一场意外的发生让乔治不幸去世,也让哈瑞惹上了杀身之祸。

General
Unique ID : 3951727194148249039408257880653020220 (0x2F91331770A0186A9DBA24FCEEFBC3C)
Complete name : [email protected]Q.COM.mkv
Format : Matroska
Format version : Version 4
File size : 2.62 GiB
Duration : 1 h 35 min
Overall bit rate : 3 925 kb/s
Encoded date : UTC 2021-07-17 15:18:22
Writing application : mkvmerge v56.1.0 ('My Friend') 64-bit
Writing library : libebml v1.4.2 + libmatroska v1.6.4

Video
ID : 1
Format : AVC
Format/Info : Advanced Video Codec
Format profile : [email protected]
Format settings : CABAC / 1 Ref Frames
Format settings, CABAC : Yes
Format settings, Reference frames : 1 frame
Format settings, GOP : M=1, N=60
Codec ID : V_MPEG4/ISO/AVC
Duration : 1 h 35 min
Bit rate mode : Constant
Bit rate : 3 797 kb/s
Nominal bit rate : 4 000 kb/s
Width : 1 920 pixels
Height : 1 080 pixels
Display aspect ratio : 16:9
Frame rate mode : Constant
Frame rate : 29.970 (30000/1001) FPS
Color space : YUV
Chroma subsampling : 4:2:0
Bit depth : 8 bits
Scan type : Progressive
Bits/(Pixel*Frame) : 0.061
Stream size : 2.53 GiB (97%)
Language : English
Default : Yes
Forced : No

Audio
ID : 2
Format : AAC LC
Format/Info : Advanced Audio Codec Low Complexity
Codec ID : A_AAC-2
Duration : 1 h 35 min
Bit rate : 125 kb/s
Channel(s) : 2 channels
Channel layout : L R
Sampling rate : 48.0 kHz
Frame rate : 46.875 FPS (1024 SPF)
Compression mode : Lossy
Stream size : 85.6 MiB (3%)
Language : English
Default : Yes
Forced : No

Text
ID : 3
Format : UTF-8
Codec ID : S_TEXT/UTF8
Codec ID/Info : UTF-8 Plain Text
Duration : 1 h 35 min
Bit rate : 56 b/s
Count of elements : 1344
Stream size : 39.6 KiB (0%)
Title : Chinese Simplified
Language : Chinese
Default : Yes
Forced : No




1 个附件 售价 大小 下载 时间

四海本色[简体字幕][email protected]DQ.COM 2.62GB.torrent 0 金币 11.27K 1792 次 2月前

#1楼
发帖时间:2021-07-18 22:16:00   |   回复数:5
ken.sting
一派掌门
感谢楼主分享精彩资源!
2月前 #2楼
ak147
超凡入圣№
感谢大大分享
2月前 #3楼
yangbo83222179
一代宗师
谢谢楼主分享
2月前 #4楼
ALLEN820213
隐世仙人♂
感谢楼主分享 !!!
2月前 #5楼
虎口遐想
一代宗师
谢谢分享
2月前 #6楼
游客组